Skip to main content

Rusted Root Live at Camp Kee-Wamee on 2013-09-13

Audio Preview

etree
Rusted Root Live at Camp Kee-Wamee on 2013-09-13


Topics Wormfest 2013


Rusted Root
2013-09-13
Wormtown Music Festival
Camp KeeWanee
Greenfield, MA
Main Stage

DPA 4011 > V3 Digital + SBD > DR680 (24/48)
SDHC Card > Sound Forge Pro 10.0 (Mix, Normalize, Fades, resample iZotope 64-Bit SRC, dither iZotope MBIT+ Dither) > CD Wav (tracking) > TLH > Flac (level 8)
TS at front corner of FOH (ROC)/ORTF/approx. 8' high

Taped and Transferred by Brian V.


Set 1

01. The Movement
02. Martyr
03. Lost In The Crowd
04. Cover Me Up
05. Food And Creative Love
06. Monkey Pants
07. Fortunate Freaks
08. Laugh As The Sun
09. Artificial Winter
10. Dangle
11. Voodoo
12. Send Me On My Way
13. encore break
14. Honky Tonk Woman
15. Ecstasy


Collection RustedRoot
Band/Artist Rusted Root
Venue Camp Kee-Wamee
Location Greenfield, MA

Source DPA 4011 > V3 Digital + SBD > DR680 (24/48)
Lineage SDHC Card > Sound Forge Pro 10.0 (Mix, Normalize, Fades, resample iZotope 64-Bit SRC, dither iZotope MBIT+ Dither) > CD Wav (tracking) > TLH > Flac (level 8)
Taped by Brian V.
Transferred by Brian V.

Notes

Thanks to everyone that put Wormtown Music Festival together and for the tapers spot.
***Support Bands That Allow Taping/Trading***

shntool output
length expanded size cdr WAVE problems fmt ratio filename
4:19.07 45704108 B --- -- ---xx flac 0.5356 rustedroot2013-09-13s1t01.flac
6:12.38 65710220 B --- -- ---xx flac 0.5831 rustedroot2013-09-13s1t02.flac
6:15.05 66161804 B --- -- ---xx flac 0.5697 rustedroot2013-09-13s1t03.flac
4:52.05 51520604 B --- -- ---xx flac 0.5935 rustedroot2013-09-13s1t04.flac
5:28.58 57995660 B --- -- ---xx flac 0.5700 rustedroot2013-09-13s1t05.flac
4:23.16 46430876 B --- -- ---xx flac 0.5816 rustedroot2013-09-13s1t06.flac
5:15.22 55617788 B --- -- ---xx flac 0.5883 rustedroot2013-09-13s1t07.flac
9:02.70 95773484 B --- -- ---xx flac 0.5301 rustedroot2013-09-13s1t08.flac
5:09.18 54549980 B --- -- ---xx flac 0.5088 rustedroot2013-09-13s1t09.flac
5:01.38 53185820 B --- -- ---xx flac 0.4660 rustedroot2013-09-13s1t10.flac
8:48.53 93263900 B --- -- ---xx flac 0.5458 rustedroot2013-09-13s1t11.flac
9:09.37 96930668 B --- -- ---xx flac 0.5292 rustedroot2013-09-13s1t12.flac
2:01.11 21370316 B --- -- ---xx flac 0.4148 rustedroot2013-09-13s1t13.flac
4:29.03 47458700 B --- -- ---xx flac 0.5076 rustedroot2013-09-13s1t14.flac
16:41.55 176705804 B --- -- ---xx flac 0.5431 rustedroot2013-09-13s1t15.flac
97:09.61 1028379732 B 0.5429 (15 files)

comment
Reviews

There are no reviews yet. Be the first one to write a review.
DOWNLOAD OPTIONS
In Collection
Rusted Root
In Collection
Live Music Archive
Uploaded by
Brian V.
on 10/14/2013
Views
99
SIMILAR ITEMS (based on metadata)
eye
Title
Date Archived
Creator
Rusted Root
by Rusted Root
etree
eye 61
favorite 0
comment 0
Source: DPA 4011 > V3 Digital + SBD > DR680 (24/48)
Rusted Root
etree
eye 211
favorite 0
comment 0
Source: AKG 393> mini-me + SB > R-44
Rusted Root
etree
eye 125
favorite 0
comment 0
Source: source1: akg 481 > Lunatec V2 > Edirol R-44 > WAV (24/48k), source2: sbd > Edirol R-44 > WAV (24/48k)
Rusted Root
by Rusted Root
etree
eye 66
favorite 1
comment 0
Source: akg460-ck1>V2 + SBD>DR680@2444
Rusted Root
by Rusted Root
etree
eye 93
favorite 1
comment 0
Source: akg460-ck1>V3 + SBD>DR680@2444
Rusted Root
by Rusted Root
etree
eye 102
favorite 1
comment 0
Source: Zoom H4n
Turbine
by Turbine
etree
eye 40
favorite 0
comment 0
Source: BSC1 (hypers) > FR-2LE [BA TMod] (24/48)
Shakedown
by Shakedown
etree
eye 71
favorite 0
comment 0
Source: DPA 4011 > V3 Digital + SBD > DR680 (24/48)
Rusted Root
by Rusted Root
etree
eye 64
favorite 0
comment 0
Source: OTS@FOB/~15'ROC/mics @ ~11' > AKGck1/ac60 > Nbob actives > Naiant PFA's > V3 > Tascam DR680
Shakedown
by Shakedown
etree
eye 48
favorite 0
comment 0
Source: DPA 4011 > V3 Digital + SBD > DR680 (24/48)